#TITLE:Strangeprogram;
#SUBTITLE:~Paradox & D-turbo~;
#ARTIST:DJ Sharpnel;
#TITLETRANSLIT:;
#SUBTITLETRANSLIT:;
#ARTISTTRANSLIT:;
#CREDIT:;
#BANNER:StrangeProgram-Banner.PNG;
#BACKGROUND:StrangeProgram-BG.PNG;
#LYRICSPATH:;
#CDTITLE:cd.png;
#MUSIC:Strangeprogram.mp3;
#OFFSET:-3.890;
#SAMPLESTART:61.689;
#SAMPLELENGTH:12.000;
#SELECTABLE:YES;
#BPMS:0.000=215.000;
#STOPS:64.000=3.320
;
#BGCHANGES:;
// cache tags:
#FIRSTBEAT:0.000;
#LASTBEAT:428.000;
#SONGFILENAME:Songs/Chilean Keyboard Megapack 3/(Paradox & d-turbo) Strangeprogram/Strangeprogram.sm;
#HASMUSIC:1;
#HASBANNER:1;
#MUSICLENGTH:126.720;
// end cache tags

//---------------dance-single - ----------------
#NOTES:
     dance-single:
     :
     Challenge:
     14:
     1.000,1.000,1.000,0.079,1.000,1244.000,255.000,10.000,0.000,16.000:
1101
0000
0110
1001
0000
0011
1100
0000
,
1011
0000
0101
1010
0000
0101
1010
0000
,
1101
0000
0011
1100
0000
0011
1100
0000
,
1011
0000
0101
1010
0000
0101
1010
0000
,
1101
0000
0110
1001
0000
1001
0110
0000
,
1101
0000
1001
0110
0000
0110
1001
0000
,
1011
0000
0101
1010
0000
0101
1010
0000
,
0110
0000
1100
0000
0110
0000
0101
0000
0110
0000
1100
0000
0110
0000
1100
0010
,
1001
0100
0010
0001
1010
0100
0001
0010
0100
1000
0100
1000
0011
0100
0001
0100
,
1010
0001
0100
0010
1001
0010
0001
0010
0100
1000
0100
0001
1010
0001
0010
1000
,
0101
0010
0100
1000
0011
0100
0010
0100
0010
0001
0100
1000
0011
0100
0010
0001
,
1100
0010
0100
0010
1001
0100
0010
1000
0100
0001
0100
0001
1010
0100
0010
0001
,
1100
0010
0100
1000
0110
0001
0100
0010
0100
1000
0100
1000
0011
0100
0010
0100
,
1010
0001
0100
0010
0101
0010
0100
0001
0100
1000
0010
1000
0011
0100
0010
0001
,
0110
0001
0100
1000
0101
0010
0001
0100
1000
0010
0001
0010
1001
0100
1010
0000
,
0010
0010
0010
0010
0010
0010
0010
0010
,
0110
0000
0000
0000
,
1001
0010
0001
0010
1001
0010
0001
0010
1001
0010
0001
0010
1001
0010
0001
0010
,
1001
0010
0001
1000
0101
1000
0100
1000
0101
1000
0100
1000
0101
1000
0100
1000
,
0101
1000
0100
1000
0101
1000
0100
0010
1100
0010
0100
0010
0101
0010
0100
0010
,
1100
0010
0100
0010
0101
0010
0100
0010
1100
0010
0100
0000
0010
0000
0100
0000
,
1001
0100
0010
0100
0011
1000
0100
0010
1100
0010
0001
0010
0101
0010
0100
1000
,
0101
1000
0100
0010
1100
0001
0010
0100
0011
1000
0100
0010
1001
0100
0010
0100
,
1001
0100
0010
0100
1001
0100
0010
0001
1010
0100
0010
0100
0011
0100
1000
0100
,
0011
0000
0110
0101
1100
0101
0110
0101
,
1010
0100
0011
1000
0110
0001
1010
0100
,
1011
0100
0110
0001
1110
1000
0101
0010
,
1100
0010
1101
0010
1100
0001
1010
0100
,
0011
0100
1001
0100
0011
0100
0011
1010
,
0110
0100
0011
0100
1001
0100
0000
0010
,
1001
0100
1010
0001
0000
0010
0110
0000
,
1011
0100
0000
0010
1101
0000
0011
0100
,
0000
1000
0111
0000
0010
2200
0000
3300
,
1000
0001
1000
0001
1000
0100
1000
0100
1000
0010
1000
0010
1000
0100
1000
0100
,
1000
0001
1000
0001
1000
0010
1000
0010
1000
0100
1000
0100
1000
0010
1000
0010
,
1000
0001
1000
0001
1000
0010
1000
0010
1000
0100
1000
0100
1000
0010
1000
0010
,
1000
0001
1000
0001
1000
0010
1000
0010
1000
0100
1000
0000
0001
0010
0001
0010
,
0001
1000
0001
1000
0001
0100
0001
0100
0001
0010
0001
0010
0001
1000
0001
1000
,
0001
0100
0001
0100
0001
1000
0001
1000
0001
0100
0001
0100
0001
1000
0001
1000
,
0001
0010
0001
0010
0001
0100
0001
0100
0001
0010
0001
0010
0001
0100
0001
0100
,
0001
1000
0001
1000
0001
0100
0001
0100
0001
0010
0001
0010
0100
1000
0100
1000
,
0100
0010
0100
0010
0100
0001
0100
0001
0100
0010
0100
0010
0100
1000
0100
1000
,
0100
0010
0100
0010
0100
0001
0100
0001
0100
0010
0100
0010
0100
1000
0100
1000
,
0100
0010
0100
0010
0100
0001
0100
0001
0100
0010
0100
0010
0100
1000
0100
1000
,
0100
0010
0100
0010
0100
0001
0100
0001
0100
0010
0100
0000
0000
0000
0100
0000
,
1001
0100
1001
0010
1001
0100
1001
0010
,
1001
0010
1001
0100
0011
1000
0101
0010
,
0110
1000
0101
0010
1100
0001
0110
1000
,
0011
0100
0220
0000
0330
0110
1100
0110
,
0110
0000
1001
0000
0110
0000
0010
1001
,
0000
0100
0011
1000
1010
0100
0110
0001
,
1010
0000
0101
0000
0011
0000
1001
0010
,
0000
0100
1001
0010
1001
0100
0011
1000
,
0011
0000
0110
0000
1001
0000
1010
0001
,
0000
0100
0011
1000
0000
0100
0011
1000
,
0000
0100
1001
0010
0000
0100
0011
1000
,
0000
0100
1001
0000
0000
0010
1001
0100
,
1010
0000
1001
0000
0101
0000
1010
0001
,
0000
0100
0011
1000
0011
0100
1001
0010
,
1001
0000
0101
0000
0011
0000
1001
0010
,
0000
0100
1001
0010
1001
0010
0000
1000
,
0110
0000
1100
0000
1001
0000
0110
0001
,
0000
0100
0011
1000
0000
0100
1001
0010
,
0000
0100
0011
1000
0000
0100
1001
0010
,
0000
0000
0001
0000
2020
0000
0000
0000
0000
0000
0000
0000
0000
3030
0000
0000
,
0100
1000
0100
1000
0100
1000
0100
1000
0100
1000
0100
0010
0100
0010
0100
0010
,
0100
0010
0100
0010
0100
0001
0010
0001
0010
0001
0010
0001
0010
0001
0010
0001
,
0100
0010
0100
0010
0100
0010
0100
0010
0100
0010
0100
0010
1000
0001
1000
0001
,
1000
0001
1000
0001
1000
0001
1000
0010
1000
0010
1000
0010
1000
0010
1000
0010
,
1000
0010
1000
0010
1000
0010
1000
0001
0100
0001
0100
0001
0100
0001
0100
0001
,
0100
0001
0100
0001
0010
0001
0010
0001
0010
0001
0010
0001
0010
0001
0100
0001
,
0100
0001
0100
0001
0100
0001
0100
1000
0100
1000
0100
1000
0100
1000
0100
0010
,
0100
0010
1001
0000
0000
0000
1001
0000
0000
0000
1001
0000
0000
0000
1001
0000
,
0000
0000
0000
0000
1000
0100
0011
0100
1000
0100
1000
0100
0011
0100
0011
0100
,
0011
0100
1000
0100
0011
0100
0011
0100
1000
0100
1000
0100
0011
0100
0011
0100
,
0011
0100
1000
0100
0011
0100
1011
0100
1000
0100
1000
0100
0011
0100
0011
0100
,
0011
0100
1000
0100
0011
0100
0011
0100
1000
0100
1000
0100
1011
0100
0011
0100
,
1011
0100
1000
0100
0011
0100
0011
0100
1000
0100
0010
0001
1100
0001
1100
0001
,
1100
0001
0010
0001
1100
0001
1100
0001
0010
0001
0010
0001
1100
0001
1100
0001
,
1100
0001
0010
0001
1100
0001
1100
0001
0010
0001
0010
0001
1100
0001
1100
0001
,
1100
0001
0010
0001
1100
0001
1100
0001
0010
0001
0010
0001
1100
0001
1100
0001
,
1100
0001
0010
0001
1100
0001
1100
0001
0010
0001
0010
0001
1100
0001
1100
0001
,
1100
0001
0010
0001
0010
1000
0100
1000
0010
1000
0100
1000
0010
1000
0100
1000
,
0010
1000
0001
1000
0010
1000
0100
1000
0010
1000
0001
1000
0010
1000
0100
1000
,
0010
1000
0100
1000
0010
1000
0001
1000
0010
1000
0010
0100
0001
0100
0010
0100
,
1000
0100
0010
0100
0001
0100
0010
0100
1000
0100
0010
0100
0001
0100
0010
0100
,
1000
0100
0010
0100
0001
0100
0010
0100
1000
0100
0010
0100
0001
0100
0010
0100
,
1000
0100
0010
0100
0001
0100
0010
0100
1000
0100
0010
0100
0001
0100
0010
0000
,
0100
1001
0000
1001
0000
1001
0000
1001
,
1000
0001
1000
0001
1000
0100
0010
0001
1000
0001
1000
0001
1000
0100
0010
0001
,
0010
0100
0010
0100
1000
0100
0010
0001
0010
0100
0010
0100
1000
0100
0010
0001
,
0100
0010
1000
0001
0100
0010
1000
0001
0010
0100
1000
0001
0010
0100
1000
0001
,
0010
0100
0010
0100
1000
0001
1000
0001
0010
0100
0010
0100
1000
0001
1000
0001
,
0010
0001
0010
0001
0100
0010
0100
0010
1000
0100
1000
0100
0010
0100
0010
0100
,
1000
0001
1000
0001
0100
0010
1000
0001
0100
0010
0100
0010
1000
0001
0100
0010
,
1000
0010
1000
0010
1000
0100
1000
0100
0010
0001
0010
0001
1000
0001
1000
0001
,
0100
0010
1000
0100
0010
0001
0100
0010
1000
0001
0100
0010
1000
0001
1000
0001
,
0010
0100
1000
0001
0010
0100
1000
0001
0010
0001
0010
0100
1000
0001
1000
0001
,
0100
0010
1000
0100
0010
0001
0010
0001
0010
0100
0010
0100
1000
0100
1000
0100
,
1000
0010
1000
0010
0100
0001
0100
0001
1000
0100
0010
0001
1000
0100
0010
0001
,
0010
0001
0010
0100
1000
0001
1000
0010
0100
0001
1000
0001
0100
0010
1000
0001
,
0100
0010
1000
0001
1000
0001
0100
0010
1000
0001
1000
0001
0100
0010
0100
0010
,
0100
0010
1000
0001
0010
0001
0010
0001
0010
0100
1000
0001
0010
0100
1000
0010
,
1001
0010
0101
0010
1001
0010
1001
0010
,
1100
0100
0000
0100
0000
0100
0101
0100
,
2200
0000
3300
0000
0010
0100
0000
1001
,
0000
1001
0000
1001
0000
1001
0000
2002
,
3003
0000
0000
0000
;
